현재접속자 (7) | 최근게시물
총 게시물 13,307건, 최근 0 건
   

콩: 스컬 아일랜드 Kong Skull Island 2017 1080p 3D BluRay Half-SBS x264 AAC 5.1 - Hon3y

글쓴이 : 다운로드 날짜 : 2017-07-07 (금) 17:40 조회 : 295

콩: 스컬 아일랜드 Kong Skull Island 2017 1080p 3D BluRay Half-SBS x264 AAC 5.1 - Hon3y.torrent

마그넷, 무료보기, 다운

Kong Skull Island 2017 1080p 3D BluRay Half-SBS x264 AAC 5.1 - Hon3y 

Source BD @ FGT. Many Thanks 


Format : Matroska 
Format version : Version 4 / Version 2 
File size : 2.76 GiB 
Duration : 1 h 58 min 
Overall bit rate : 3 336 kb/s 
Movie name : Kong Skull Island 2017 3D- [email protected]<script data-cfhash='f9e31' type="text/javascript">
Format settings, CABAC : Yes 
Format settings, ReFrames : 5 frames 
Codec ID : V_MPEG4/ISO/AVC 
Duration : 1 h 58 min 
Bit rate : 3 000 kb/s 
Width : 1 920 pixels 
Height : 800 pixels 
Display aspect ratio : 2.40:1 
Frame rate mode : Constant 
Frame rate : 23.976 (24000/1001) FPS 


Audio 
ID : 2 
Format : AAC 
Format/Info : Advanced Audio Codec 
Format profile : LC 
Codec ID : A_AAC 
Duration : 1 h 58 min 
Bit rate : 320 kb/s 
Channel(s) : 6 channels 
Channel positions : Front: L C R, Side: L R, LFE 
Sampling rate : 48.0 kHz 


Text #1 
ID : 3 
Format : UTF-8 
Codec ID : S_TEXT/UTF8 
Codec ID/Info : UTF-8 Plain Text 
Duration : 1 h 57 min 
Bit rate : 44 b/s 
Count of elements : 1250 
Stream size : 38.8 KiB (0%) 
Language : English 
Default : Yes 
Forced : No 

Text #2 
ID : 4 
Format : PGS 
Muxing mode : zlib 
Codec ID : S_HDMV/PGS 
Codec ID/Info : Picture based subtitle format used on BDs/HD-DVDs 
Duration : 1 h 58 min 
Bit rate : 14.0 kb/s 
Count of elements : 3060 
Stream size : 11.8 MiB (0%) 
Language : English 
Default : No 
Forced : No 


     


[ 바로감상 ] 또는 [ 다운로드 ]