현재접속자 (3) | 최근게시물
총 게시물 4,251건, 최근 0 건
   

[한글] 아스트로 보이 : 아톰의 귀환 Astro Boy 2009 (1080p Bluray x265 HEVC 10bit AAC 5.1 Tigole) [UTR]

글쓴이 : 다운로드 날짜 : 2017-10-13 (금) 01:40 조회 : 7

[한글] 아스트로 보이 : 아톰의 귀환 Astro Boy 2009 (1080p Bluray x265 HEVC 10bit AAC 5.1 Tigole) [UTR].torrent

마그넷, 감상, 다운

 

Astro Boy 2009 in 1080p, encoded with x265 in HEVC and AAC 5.1 English, with subtitle! 
Encoded using the time consuming 2 pass, 10 bit color at 3077 kbps, from a Blu-ray source, for the highest quality possible. 



Media Information

Code:

General 
Format : Matroska 
Format version : Version 4 / Version 2 
File size : 2.33 GiB 
Duration : 1 h 33 min 
Overall bit rate : 3 555 kb/s 
Movie name : Astro Boy 
Encoded date : UTC 2017-09-16 17:47:14 

Video 
ID : 1 
Format : HEVC 
Format/Info : High Efficiency Video Coding 
Format profile : Main [email protected]@Main 
Codec ID : V_MPEGH/ISO/HEVC 
Duration : 1 h 33 min 
Bit rate : 3 077 kb/s 
Width : 1 920 pixels 
Height : 816 pixels 
Display aspect ratio : 2.35:1 
Frame rate mode : Constant 
Frame rate : 23.976 (24000/1001) FPS 
Color space : YUV 
Chroma subsampling : 4:2:0 
Bit depth : 10 bits 
Bits/(Pixel*Frame) : 0.082 
Stream size : 2.02 GiB (87%) 

Audio 
ID : 2 
Format : AAC 
Format/Info : Advanced Audio Codec 
Format profile : LC 
Codec ID : A_AAC 
Duration : 1 h 33 min 
Bit rate : 469 kb/s 
Channel(s) : 6 channels 
Channel positions : Front: L C R, Side: L R, LFE 
Sampling rate : 48.0 kHz 
Frame rate : 46.875 FPS (1024 spf) 
Compression mode : Lossy 
Delay relative to video : 20 ms 
Stream size : 314 MiB (13%) 
Language : English 
Default : Yes 
Forced : No 

Text 
ID : 3 
Format : VobSub 
Muxing mode : zlib 
Codec ID : S_VOBSUB 
Codec ID/Info : Picture based subtitle format used on DVDs 
Duration : 1 h 24 min 
Bit rate : 11.9 kb/s 
Count of elements : 1312 
Stream size : 7.21 MiB (0%) 
Language : English 
Default : No 
Forced : No 

메트로 시티 최고의 과학자, ‘텐마 박사’는 로봇 시험 가동 중 사고로 아들 ‘토비’를 잃는다. 자신의 실수로 아들을 잃고 괴로워하던 ‘텐마 박사’는 ‘토비’의 DNA를 이식해 인간의 감성과 하이 테크놀로지가 결합된 최고의 로봇 ‘아스트로’를 만들어낸다. 하지만 ‘아스트로’의 존재를 알게 된 독재자 ‘스톤 총리’는 ‘아스트로’의 생명 에너지를 차지하기 위해 군대를 동원해 공격을 시작한다. 
 불의의 공격을 받고 메트로 시티 아래로 떨어진 ‘아스트로’. ‘아스트로’는 그 곳에서 값나가는 부품을 얻기 위해 로봇을 사냥하는 ‘코라’ 일행과 친구가 되지만 아이들의 대부, ‘햄에그’의 계략으로 상대를 죽여야만 끝나는 로봇 서바이벌에 나가게 된다. 한편, 대결 중인 ‘아스트로’의 에너지를 감지한 ‘스톤 총리’는 ‘아스트로’를 죽이기 위해 최강의 전투 로봇 ‘피스키퍼’를 가동시키는데……


[ 바로감상 ] 또는 [ 다운로드 ]