현재접속자 (8) | 최근게시물
총 게시물 1,525건, 최근 6 건
   

[한글] 더 리틀 아워즈 The.Little.Hours.2017.720p.BluRay.x264-x0r

글쓴이 : 다운로드 날짜 : 2017-10-11 (수) 08:40 조회 : 7

[한글] 더 리틀 아워즈 The.Little.Hours.2017.720p.BluRay.x264-x0r.torrent

다운, 사이트, torrent



R | Comedy, Romance | 30 June 2017 (USA)


Format : Matroska
Format version : Version 4 / Version 2
File size : 1.87 GiB
Duration : 1 h 29 min
Overall bit rate : 3006 kb/s
Movie name : The.Little.Hours.2017.720p.BluRay.x264-x0r
Encoded date : UTC 2017-10-10 20:25:48
Writing application : mkvmerge v7.7.0 (Six Voices) 64bit built on Mar 1 2015 01:50:05
Writing library : libebml v1.3.1 + libmatroska v1.4.2

Video
ID : 1
Format : AVC
Format/Info : Advanced Video Codec
Format profile : [email protected]
Format settings, CABAC : Yes
Format settings, ReFrames : 8 frames
Codec ID : V_MPEG4/ISO/AVC
Duration : 1 h 29 min
Bit rate : 2560 kb/s
Width : 1280 pixels
Height : 720 pixels
Display aspect ratio : 16:9
Frame rate mode : Constant
Frame rate : 23.976 (24000/1001) FPS
Color space : YUV
Chroma subsampling : 4:2:0
Bit depth : 8 bits
Scan type : Progressive
Bits/(Pixel*Frame) : 0.116
Stream size : 1.59 GiB (85%)
Writing library : x264 core 142 r2389 956c8d8
Encoding settings : cabac=1 / ref=8 / deblock=1:-3:-3 / analyse=0x3:0x113 / me=umh / subme=9 / psy=1 / psy_rd=1.00:0.25 / mixed_ref=0 / me_range=32 / chroma_me=1 / trellis=2 / 8x8dct=1 / cqm=0 / deadzone=6,6 / fast_pskip=0 / chroma_qp_offset=-4 / threads=12 / lookahead_threads=1 / sliced_threads=0 / nr=0 / decimate=1 / interlaced=0 / bluray_compat=0 / constrained_intra=0 / bframes=4 / b_pyramid=2 / b_adapt=2 / b_bias=0 / direct=3 / weightb=1 / open_gop=0 / weightp=2 / keyint=240 / keyint_min=24 / scenecut=40 / intra_refresh=0 / rc_lookahead=100 / rc=2pass / mbtree=1 / bitrate=2560 / ratetol=1.0 / qcomp=0.00 / qpmin=0 / qpmax=69 / qpstep=4 / cplxblur=20.0 / qblur=0.5 / vbv_maxrate=20000 / vbv_bufsize=25000 / nal_hrd=none / filler=0 / ip_ratio=1.10 / aq=1:1.00
Language : English
Default : Yes
Forced : No
Color range : Limited
Color primaries : BT.709
Transfer characteristics : BT.709
Matrix coefficients : BT.709

Audio
ID : 2
Format : AC-3
Format/Info : Audio Coding 3
Format settings, Endianness : Big
Codec ID : A_AC3
Duration : 1 h 29 min
Bit rate mode : Constant
Bit rate : 448 kb/s
Channel(s) : 6 channels
Channel positions : Front: L C R, Side: L R, LFE
Sampling rate : 48.0 kHz
Frame rate : 31.250 FPS (1536 spf)
Bit depth : 16 bits
Compression mode : Lossy
Delay relative to video : -5 ms
Stream size : 286 MiB (15%)
Title : Surround
Language : English
Service kind : Complete Main
Default : Yes
Forced : No

Text
ID : 3
Format : UTF-8
Codec ID : S_TEXT/UTF8
Codec ID/Info : UTF-8 Plain Text
Duration : 1 h 24 min
Bit rate : 74 b/s
Count of elements : 1506
Stream size : 46.2 KiB (0%)
Language : English
Default : Yes
Forced : No

Menu
00:00:00.000 : :Chapter 1
00:10:01.225 : :Chapter 2
00:20:01.742 : :Chapter 3
00:30:01.883 : :Chapter 4
00:40:02.692 : :Chapter 5
00:50:02.958 : :Chapter 6
01:00:03.558 : :Chapter 7
01:10:04.658 : :Chapter 8
01:20:05.175 : :Chapter 9
01:29:13.139 : :Chapter 10




[ 바로감상 ] 또는 [ 다운로드 ]