현재접속자 (4) | 최근게시물
총 게시물 1,623건, 최근 0 건
   

[영] 본 캅 배드 캅 2 Bon.Cop.Bad.Cop.2.2017.BluRay.1080p.x264.AAC.5.1.-.Hon3y

글쓴이 : 다운로드 날짜 : 2017-10-12 (목) 07:40 조회 : 21

[영] 본 캅 배드 캅 2 Bon.Cop.Bad.Cop.2.2017.BluRay.1080p.x264.AAC.5.1.-.Hon3y.torrent

바로보기, 다운로드, 사이트



Not Rated | Action, Comedy, Crime | 12 May 2017 (Canada)  


Format                      : Matroska
Format version              : Version 4 / Version 2
File size                   : 2.93 GiB
Duration                    : 2 h 6 min
Overall bit rate            : 3322 kb/s

Video
ID                          : 1
Format                      : AVC
Format/Info                 : Advanced Video Codec
Format profile              : [email protected]
Format settings, CABAC      : Yes
Format settings, RefFrames  : 5 frames
Codec ID                    : V_MPEG4/ISO/AVC
Duration                    : 2 h 6 min
Bit rate                    : 3000 kb/s
Width                       : 1920 pixels
Height                      : 804 pixels
Display aspect ratio        : 2.40:1
Frame rate mode             : Constant
Frame rate                  : 23.976 (24000/1001) FPS

Audio
ID                          : 2
Format                      : AAC
Format/Info                 : Advanced Audio Codec
Format profile              : LC
Codec ID                    : A_AAC
Duration                    : 2 h 6 min
Bit rate                    : 320 kb/s
Channel(s)                  : 6 channels
Channel positions           : Front: L C R, Side: L R, LFE
Sampling rate               : 48.0 kHz
Frame rate                  : 46.875 FPS (1024 SPF)
Compression mode            : Lossy
Delay relative to video     : -21 ms
Stream size                 : 289 MiB (10%)
Title                       : Surround
Language                    : English

Text
ID                          : 3
Format                      : ASS
Codec ID                    : S_TEXT/ASS
Codec ID/Info               : Advanced Sub Station Alpha
Duration                    : 1 h 58 min
Bit rate                    : 48 b/s
Count of elements           : 750
Compression mode            : Lossless
Stream size                 : 41.9 KiB (0%)
Language                    : English
Default                     : No
Forced                      : No

Menu
00:00:00.000                : :00:00:00.000
00:03:36.091                : :00:03:36.091
00:10:35.844                : :00:10:35.760
00:17:11.239                : :00:17:11.155
00:21:54.021                : :00:21:53.896
00:31:32.808                : :00:31:32.682
00:35:45.560                : :00:35:45.435
00:42:16.034                : :00:42:15.950
00:50:12.593                : :00:50:12.468
00:54:58.003                : :00:54:58.003
01:01:56.379                : :01:01:56.296
01:07:31.673                : :01:07:31.589
01:14:33.427                : :01:14:33.344
01:20:42.212                : :01:20:42.087
01:25:53.982                : :01:25:53.899
01:31:47.961                : :01:31:47.961
01:38:06.714                : :01:38:06.631
01:45:41.627                : :01:45:41.544
01:58:01.032                : :01:58:00.949
02:01:23.568                : :02:01:23.485




[ 바로감상 ] 또는 [ 다운로드 ]